<?xml version="1.0" standalone="no"?>
<!DOCTYPE svg PUBLIC "-//W3C//DTD SVG 1.1//EN" "http://www.w3.org/Graphics/SVG/1.1/DTD/svg11.dtd" >
<svg xmlns="http://www.w3.org/2000/svg">
<metadata>Generated by IcoMoon</metadata>
<defs>
<font id="icomoon" horiz-adv-x="1024">
<font-face units-per-em="1024" ascent="960" descent="-64" />
<missing-glyph horiz-adv-x="1024" />
<glyph unicode="&#x20;" horiz-adv-x="512" d="" />
<glyph unicode="&#xe600;" glyph-name="arrow-left" d="M716.749 696.32l0.051-471.040-409.6 235.52z" />
<glyph unicode="&#xe601;" glyph-name="arrow-down" d="M747.52 665.549l-471.040 0.051 235.52-409.6z" />
<glyph unicode="&#xe602;" glyph-name="arrow-up" d="M276.48 256h471.040l-235.571 409.6z" />
<glyph unicode="&#xe603;" glyph-name="arrow-right" d="M307.251 696.32l-0.051-471.040 409.6 235.52z" />
<glyph unicode="&#xe604;" glyph-name="arrow-left2" d="M585.574 741.581c-21.402-20.89-230.502-240.435-230.502-240.435-11.418-11.162-17.101-25.754-17.101-40.346s5.683-29.184 17.101-40.346c0 0 209.101-219.546 230.502-240.384 21.402-20.89 59.904-22.323 82.739 0 22.784 22.272 24.576 53.35-0.051 80.64l-191.846 200.090 191.846 200.090c24.627 27.341 22.835 58.419 0.051 80.691-22.886 22.272-61.389 20.89-82.739 0z" />
<glyph unicode="&#xe605;" glyph-name="arrow-down2" d="M792.73 534.374c-20.838-21.402-240.384-230.554-240.384-230.554-11.162-11.418-25.754-17.101-40.346-17.101-14.643 0-29.235 5.683-40.346 17.101 0 0-219.546 209.152-240.435 230.554-20.838 21.402-22.272 59.853 0 82.739 22.323 22.835 53.402 24.627 80.691 0l200.090-191.898 200.038 191.846c27.341 24.627 58.47 22.835 80.691 0 22.323-22.835 20.941-61.338 0-82.688z" />
<glyph unicode="&#xe606;" glyph-name="arrow-up2" d="M792.73 387.226c-20.838 21.402-240.384 230.502-240.384 230.502-11.162 11.418-25.754 17.152-40.346 17.152-14.643 0-29.235-5.734-40.346-17.152 0 0-219.546-209.101-240.435-230.502-20.838-21.402-22.272-59.904 0-82.739 22.323-22.784 53.402-24.627 80.691 0l200.090 191.846 200.038-191.846c27.341-24.627 58.47-22.784 80.691 0 22.323 22.886 20.941 61.389 0 82.739z" />
<glyph unicode="&#xe607;" glyph-name="arrow-right2" d="M438.426 741.581c21.402-20.89 230.502-240.435 230.502-240.435 11.469-11.162 17.152-25.754 17.152-40.346s-5.683-29.184-17.152-40.346c0 0-209.101-219.546-230.502-240.384-21.402-20.89-59.853-22.323-82.739 0-22.835 22.272-24.627 53.35 0 80.64l191.898 200.090-191.846 200.090c-24.627 27.341-22.835 58.419 0 80.691s61.338 20.89 82.688 0z" />
<glyph unicode="&#xe608;" glyph-name="arrow-left3" d="M634.829 285.798c13.722-13.875 13.722-36.301 0-50.125-13.722-13.875-35.891-13.875-49.613 0l-196.096 200.038c-13.722 13.875-13.722 36.301 0 50.125l196.096 200.090c13.722 13.875 35.891 13.875 49.613 0s13.722-36.25 0-50.125l-160.768-175.002 160.768-175.002z" />
<glyph unicode="&#xe609;" glyph-name="arrow-down3" d="M687.002 583.629c13.875 13.722 36.301 13.722 50.125 0 13.875-13.722 13.875-35.891 0-49.613l-200.038-196.096c-13.875-13.722-36.301-13.722-50.125 0l-200.090 196.096c-13.824 13.722-13.824 35.891 0 49.613 13.875 13.722 36.25 13.722 50.125 0l175.002-160.768 175.002 160.768z" />
<glyph unicode="&#xe60a;" glyph-name="arrow-up3" d="M336.947 337.971c-13.875-13.722-36.25-13.722-50.125 0-13.824 13.722-13.875 35.891 0 49.664l200.090 195.994c13.875 13.722 36.301 13.722 50.125 0l200.090-196.045c13.875-13.773 13.875-35.942 0-49.664s-36.25-13.722-50.125 0l-175.053 160.819-175.002-160.768z" />
<glyph unicode="&#xe60b;" glyph-name="arrow-right3" d="M389.171 285.798c-13.722-13.875-13.722-36.301 0-50.125 13.67-13.875 35.891-13.875 49.613 0l196.096 200.038c13.722 13.875 13.722 36.301 0 50.125l-196.096 200.090c-13.722 13.875-35.891 13.875-49.613 0s-13.722-36.25-0.051-50.074l160.819-175.053-160.768-175.002z" />
<glyph unicode="&#xe60c;" glyph-name="arrow-left4" d="M737.229 80.998c13.722-13.875 13.722-36.25 0-50.125s-35.891-13.875-49.613 0l-400.896 404.838c-13.722 13.875-13.722 36.301 0 50.125l400.896 404.89c13.722 13.875 35.891 13.875 49.613 0s13.722-36.25 0-50.125l-365.568-379.802 365.568-379.802z" />
<glyph unicode="&#xe60d;" glyph-name="arrow-down4" d="M132.198 686.029c-13.875 13.722-36.301 13.722-50.125 0-13.824-13.67-13.824-35.891 0-49.613l404.89-400.896c13.875-13.722 36.25-13.722 50.125 0l404.89 400.896c13.824 13.722 13.875 35.891 0 49.613s-36.352 13.722-50.125 0.051l-379.853-365.619-379.802 365.568z" />
<glyph unicode="&#xe60e;" glyph-name="arrow-up4" d="M891.802 235.571c13.875-13.722 36.301-13.722 50.125 0 13.875 13.722 13.875 35.891 0 49.613l-404.89 400.896c-13.824 13.722-36.25 13.722-50.074 0l-404.89-400.896c-13.824-13.722-13.875-35.891 0-49.613s36.25-13.722 50.125 0l379.802 365.619 379.802-365.619z" />
<glyph unicode="&#xe60f;" glyph-name="bitcoin" horiz-adv-x="831" d="M416.562 841.898c-217.791 0-394.343-176.553-394.343-394.345s176.553-394.345 394.343-394.345c217.793 0 394.348 176.555 394.348 394.345s-176.555 394.345-394.348 394.345zM562.313 427.171c-4.394 10.103-11.158 18.977-24.686 26.444-7.206 3.952-14.146 6.852-22.316 8.785 4.744 2.196 8.785 4.744 14.321 9.663 6.589 5.8 11.51 13.795 13.705 20.469 2.286 6.589 3.603 15.814 3.076 24.776-0.968 14.76-3.867 29.078-11.598 39.358s-18.625 18.187-33.031 23.723c-11.070 4.216-22.403 6.852-39.974 7.817v56.14h-35.144v-56.227h-28.114v56.227h-36.022v-56.227h-76.522v-42.171h24.515c7.643 0 12.824-0.703 15.461-2.021 2.724-1.316 4.658-3.073 5.712-5.27 1.143-2.196 1.67-7.38 1.67-15.375v-152.166c0-7.906-0.528-13.004-1.67-15.287-1.143-2.286-1.76-4.307-4.48-5.534-2.722-1.231-2.812-1.143-10.368-1.143h-23.195l-7.643-42.171h76.436v-56.227h36.022v56.227h28.114v-56.227h35.142v56.577c22.843 1.143 39.096 4.13 52.185 9.050 16.957 6.325 29.959 15.551 39.272 27.676s13.089 30.661 13.881 44.981c0.616 12.739-0.791 29.168-4.744 38.13v0zM398.463 540.678h28.114v-65.012h-28.114v65.012zM398.463 433.496h28.114v-79.069h-28.114v79.069zM461.718 537.252c5.27-2.196 8.697-6.589 12.124-11.157 3.777-5.007 5.71-11.685 5.71-18.802 0-6.852-2.548-12.739-6.589-18.010-3.339-4.304-5.976-7.292-11.244-9.751v57.72zM487.021 373.227c-6.852-6.061-10.808-8.874-19.416-12.124-1.76-0.703-4.13-1.23-5.886-1.668v72.742c4.394-0.703 6.678-1.58 9.925-2.987 6.854-2.899 13.354-6.061 17.396-11.596s7.028-13.705 7.028-21.7c0-9.577-2.461-16.867-9.050-22.667v0z" />
<glyph unicode="&#xe610;" glyph-name="compose" d="M416 416.6v-64.6h64.399l360.2 360-64.8 64.6zM888.401 799.4l-25 25c-5.4 4.8-12.401 7.601-20 7.601s-14.6-3-19.8-7.601l-24.2-24.399 0.2-0.2 22.4-22.6 42.001-42.001 24.401 24.399c4.8 5.201 7.599 12.2 7.599 19.8 0.2 7.599-2.799 14.6-7.599 20zM511 320h-127v127.2l256 256h-0.6l0.8 0.8h-480.2v-576h608v444.399l0.2 5z" />
<glyph unicode="&#xe611;" glyph-name="contact" d="M512 864c-229.8 0-416-186.2-416-416s186.2-416 416-416c229.8 0 416 186.2 416 416s-186.2 416-416 416zM512 66.6c-117.2 0-222.2 53.2-292.2 136.6 35.6 15.4 124.4 47.4 180.6 63.8 4.4 1.4 5.2 1.6 5.2 21.4 0 21.2-2.4 36.2-7.6 47.2-7 15-15.4 40.4-18.4 63.2-8.4 9.8-19.8 29-27.2 65.8-6.4 32.4-3.4 44.2 0.8 55.2 0.4 1.2 1 2.4 1.2 3.6 1.6 7.4-0.6 47-6.2 77.6-3.8 21 1 65.6 30 102.6 18.2 23.4 53.2 52 116 56h35c63.8-4 98.8-32.6 117-56 29-37 33.8-81.6 29.8-102.6-5.6-30.6-7.8-70-6.2-77.6 0.2-1.2 0.8-2.4 1.2-3.4 4.2-11 7.4-22.8 0.8-55.2-7.4-36.8-18.8-56-27.2-65.8-3-22.8-11.4-48-18.4-63.2-6.6-13.8-13.2-30.2-13.2-46.6 0-19.8 0.8-20 5.4-21.4 53.4-15.8 145.4-47.6 186-64.2-70-83.6-175-137-292.4-137z" />
<glyph unicode="&#xe612;" glyph-name="email" d="M896 192v484.4l-262.2-199.6 136.2-154.8-4-4-157.8 139.2-96.2-73.2-96.2 73.2-157.8-139.2-4 4 136 154.8-262 199.2v-484zM879.4 704h-735.4l368-279.8z" />
<glyph unicode="&#xe613;" glyph-name="gear" horiz-adv-x="960" d="M817 527h-30.4c-24.8 0-45.6 21.4-45.6 46.8 0 12.8 5.4 24.4 15 33l19.6 19.2c19.4 19.2 19.4 50.6 0 69.8l-44.6 44.2c-8.8 8.8-21.8 14-35 14s-26-5.2-35-14l-18.8-18.8c-9-10-21-15.4-34-15.4-25.6 0-47 20.8-47 45.4v30.6c0 27-21.8 50.2-49 50.2h-60.8c-27.2 0-48.8-23-48.8-50.2v-30.4c0-24.6-21.4-45.4-47-45.4-12.8 0-24.6 5.4-33.2 14.8l-19.4 19.2c-8.8 9-21.8 14-35 14s-26-5.2-35-14l-45-44c-19.2-19.2-19.2-50.6 0-69.6l18.8-18.8c10-9 15.6-21 15.6-33.8 0-25.6-20.8-46.8-45.6-46.8h-30.4c-27.4 0-50.4-21.4-50.4-48.6v-60.8c0-27 23-48.6 50.4-48.6h30.4c24.8 0 45.6-21.4 45.6-46.8 0-12.8-5.6-24.8-15.6-33.8l-18.8-18.6c-19.2-19.2-19.2-50.6 0-69.6l44.6-44.4c8.8-9 21.8-14 35-14s26 5.2 35 14l19.4 19.2c8.4 9.4 20.4 14.8 33.2 14.8 25.6 0 47-20.8 47-45.4v-30.4c0-27 21.6-50.2 49-50.2h60.8c27.2 0 48.8 23 48.8 50.2v30.4c0 24.6 21.4 45.4 47 45.4 12.8 0 24.8-5.6 34-15.4l18.8-18.8c9-8.8 21.8-14 35-14s26 5.2 35 14l44.6 44.4c19.2 19.2 19.2 50.6 0 69.8l-19.6 19.2c-9.6 8.6-15 20.4-15 33 0 25.6 20.8 46.8 45.6 46.8h30.4c27.2 0 46.6 21.4 46.6 48.6v61c0.4 27.2-19 48.6-46.2 48.6zM641.6 448v0c0-88.2-71.4-160-160-160s-160 71.8-160 160v0 0c0 88.2 71.4 160 160 160s160-71.8 160-160v0z" />
<glyph unicode="&#xe614;" glyph-name="home" horiz-adv-x="960" d="M480 736l-320-256v-416h224v256h192v-256h224v416l-320 256zM480 832l-192-153.6v89.6h-128v-191.998l-64-51.2v-40.982l384 307.2 384-307.2v40.982l-384 307.198z" />
<glyph unicode="&#xe615;" glyph-name="locked" horiz-adv-x="896" d="M448 352c-17.6 0-32-14.4-32-32s14.4-32 32-32 32 14.4 32 32-14.4 32-32 32zM656 512v144c0 114.8-93.2 208-208 208-115 0-208-93.2-208-208v-144h-112v-480h640v480h-112zM464 258v-82c0-8.8-7.2-16-16-16s-16 7.2-16 16v82c-27.6 7.2-48 32.2-48 62 0 35.4 28.6 64 64 64s64-28.6 64-64c0-29.8-20.4-54.8-48-62zM624 512h-352v144c0 97 79 176 176 176s176-79 176-176v-144z" />
<glyph unicode="&#xe616;" glyph-name="usd" horiz-adv-x="831" d="M359.545 559.525c-3.994-5.364-5.983-12.063-5.983-20.109 0-11.323 3.744-20.185 11.244-26.586 7.201-6.163 16.565-10.854 28.048-14.121v79.842c-6.603-1.363-12.7-3.438-18.239-6.294-6.062-3.129-11.086-7.372-15.073-12.733zM471.301 425.47c-7.255 2.494-15.236 4.901-23.913 7.239v-93.475c4.823 0.697 9.297 1.657 13.378 2.905 9.248 2.829 16.749 6.479 22.493 10.946s9.888 9.607 12.441 15.417c2.553 5.808 3.826 11.689 3.826 17.654 0 12.212-2.955 21.223-8.85 27.034-5.906 5.804-12.372 9.895-19.377 12.282zM416.101 842.128c-218.017 0-394.756-176.739-394.756-394.756s176.739-394.756 394.756-394.756c218.017 0 394.756 176.739 394.756 394.756s-176.739 394.756-394.756 394.756v0zM547.626 346.591c-7.822-12.669-18.109-23.029-30.869-31.072-12.763-8.043-27.276-13.956-43.547-17.676-8.517-1.952-17.127-3.39-25.822-4.34v-27.956h-54.53v28.569c-8.385 1.081-16.542 2.615-24.453 4.669-17.232 4.467-32.237 11.083-44.991 20.322-12.766 9.232-22.973 20.61-30.627 35.060-7.332 13.818-11.293 32.556-11.9 47.703h59.786c0.292-9.089 2.51-19.788 6.667-27.822 4.464-8.643 10.682-14.794 18.663-20.299 7.792-5.392 16.756-9.335 26.849-11.872v104.083c-7.379 1.821-15.196 3.771-23.502 5.872-14.681 3.577-26.88 8.266-36.61 14.074-9.738 5.81-17.469 12.29-23.209 19.44-5.745 7.147-9.81 14.743-12.202 22.788-2.395 8.048-3.591 16.233-3.591 24.578 0 16.086 3.591 30.007 10.773 41.779 7.173 11.764 16.665 21.521 28.47 29.271 11.799 7.744 25.202 13.475 40.198 17.203 6.527 1.618 13.085 2.863 19.673 3.782v28.563h54.53v-28.775c7.452-1.070 14.71-2.538 21.749-4.462 15.801-4.324 29.678-10.793 41.635-19.429 11.965-8.647 21.458-19.28 28.478-31.937 6.387-11.545 9.867-24.453 10.434-39.6h-60.182c-2.281 18.175-9.618 31.282-22.035 39.148-5.956 3.778-12.683 6.655-20.081 8.746v-91.995c7.841-1.935 15.6-3.842 23.186-5.69 10.364-2.535 17.782-4.402 22.254-5.585 11.167-3.282 20.893-7.75 29.194-13.404 8.291-5.663 15.233-12.142 20.821-19.44 5.577-7.305 9.724-15.124 12.442-23.46 2.706-8.339 4.069-16.693 4.069-25.029 0.005-17.87-3.911-33.146-11.723-45.804v0z" />
<glyph unicode="&#xe617;" glyph-name="paperplane" horiz-adv-x="896" d="M107.021 461.639l225.898-99.523 456.058 426.862zM788.979 788.979l-422.174-459.681 110.604-222.275z" />
<glyph unicode="&#xe618;" glyph-name="people" d="M704.413 285.316c23.329-8.052-23.123 8.052 0 0v0zM704.413 285.316c-27.871 9.703-58.013 10.323-85.884 20.026-8.465 2.89-25.187 6.4-28.697 16.103-3.303 9.497-3.303 20.645-3.923 30.555-0.413 7.845-0.619 15.69-0.619 23.535 0 5.161 13.213 16.103 16.103 20.852 11.148 18.581 12.181 43.561 14.245 64.619 17.961-4.955 20.232 28.284 23.329 38.4 2.271 7.019 16.103 55.329-5.368 48.723 5.161 9.084 7.226 20.232 8.671 30.348 4.129 26.426 5.781 55.329-2.271 81.135-16.723 53.677-68.129 83.819-122.426 85.471-55.123 1.858-110.452-24.568-131.097-78.039-9.91-26.013-9.084-54.297-5.781-81.548 1.445-12.387 3.51-26.219 9.703-37.368-20.026 5.987-9.29-36.542-7.019-43.974 3.303-10.529 6.194-48.31 24.981-43.148 1.652-16.723 3.51-33.858 8.052-50.168 3.097-10.942 9.497-20.232 16.929-28.697 3.716-4.129 5.574-4.542 5.368-9.91-0.206-16.103 0.206-33.445-3.923-49.135s-38.606-22.297-52.439-25.187c-37.161-7.639-71.432-11.148-102.4-34.271-36.129-26.632-54.916-68.129-54.916-112.929 171.974 0 343.948 0 515.923 0 19.406 0 38.606 0 58.013 0 0 60.903-36.748 114.581-94.555 134.606zM279.329 310.71c1.239 0.619 2.477 1.239 3.303 1.652-0.619-0.206-1.239-0.619-1.652-0.826-0.619-0.206-1.032-0.413-1.652-0.826zM279.329 310.71c-7.019-3.51-15.484-7.845 1.652 0.826 6.194 3.097 4.955 2.477 1.652 0.826 14.039 6.606 29.11 8.258 44.181 9.703 5.781 0.619 8.465 4.542 4.129 10.116-8.258 10.529-36.748 12.594-48.723 17.342-7.432 2.89-9.497 5.574-10.116 13.832-0.206 3.716-2.271 20.232 0.619 22.916 2.065 2.065 15.071 1.239 17.961 1.652 11.768 1.445 23.742 3.923 34.89 8.258 4.748 1.858 9.29 4.129 13.419 7.019 4.955 3.716-3.716 12.8-5.987 17.755-7.019 15.484-10.116 32.413-11.148 49.342-2.065 33.239 3.097 66.684-3.097 99.716-9.29 50.581-48.31 75.974-98.065 75.974-30.761 0-61.11-10.529-78.245-37.368-18.994-29.523-17.961-66.271-16.929-99.923 0.619-19.2 1.445-38.606-1.239-57.806-1.239-8.258-3.097-16.31-5.987-24.155-2.271-5.987-13.832-20.852-9.29-23.948 17.135-12.181 46.039-16.31 66.684-14.658 0.619-10.116 2.477-23.123-1.239-32.619-5.781-14.865-48.929-18.787-61.935-23.123-36.129-11.974-62.968-41.29-62.968-82.581 37.781 0 75.355 0 113.135 0 16.929 0 33.858 0 50.994 0 2.684 0 13.006 19.2 15.897 22.297 14.039 15.484 31.174 28.903 49.755 38.606zM911.071 332.594c-16.723 5.368-48.929 7.019-60.903 21.471-5.987 7.226-2.684 25.6-2.065 34.271 9.084-0.826 18.994 0.619 28.284 1.858 8.465 1.239 16.723 2.89 24.774 5.781 3.716 1.445 7.432 2.89 10.942 4.955 8.052 4.748 4.335 5.574 0.206 12.594-22.503 37.781-12.387 85.677-13.419 127.174-0.826 34.477-9.91 72.258-41.29 91.665-28.284 17.548-70.194 18.168-100.542 5.781-87.535-35.097-35.923-151.123-65.858-217.6-5.161-11.148-12.594-15.071 0.413-21.677 7.226-3.716 15.071-6.194 22.916-8.052 11.974-2.89 24.361-4.542 36.748-4.955 2.065 0 0.619-26.013 0-28.697-2.271-10.116-24.361-13.006-32.619-15.277-8.465-2.271-22.503-2.89-26.632-11.768-6.194-13.213 20.439-9.91 27.045-11.148 21.265-3.923 40.052-15.69 56.568-29.11 12.387-10.116 29.11-23.742 33.652-40.258 55.123 0 110.452 0 165.574 0-0.413 41.497-27.458 71.019-63.794 82.994z" />
<glyph unicode="&#xe619;" glyph-name="person" horiz-adv-x="896" d="M676.669 218.053c-27.491 9.803-66.917 13.213-92.064 18.754-14.492 3.197-35.589 11.295-42.622 19.607-7.033 8.524-2.771 87.163-2.771 87.163s13 20.458 20.032 38.36 14.705 66.917 14.705 66.917 14.492 0 19.607 25.361c5.541 27.705 14.066 39.212 13 59.884-1.065 19.18-11.081 20.246-12.148 20.246v0c0 0 10.442 28.983 11.934 90.359 1.705 72.671-53.917 144.277-158.342 144.277s-159.834-71.392-158.342-144.063c1.279-61.163 11.934-90.359 11.934-90.359v0c-1.065 0-11.081-1.065-12.148-20.246-1.065-20.672 7.672-31.753 13-59.458 5.115-25.361 19.607-25.573 19.607-25.573s7.672-49.228 14.705-67.13c7.033-18.114 20.032-38.36 20.032-38.36s4.262-78.638-2.771-87.163c-7.033-8.524-28.131-16.41-42.622-19.607-25.361-5.541-64.573-9.163-92.064-18.967s-112.31-42.836-112.31-111.031h681.956c0 68.196-84.819 101.228-112.31 111.031z" />
<glyph unicode="&#xe61a;" glyph-name="pricetag" d="M384 640c0-35.346-28.654-64-64-64s-64 28.654-64 64c0 35.346 28.654 64 64 64s64-28.654 64-64zM877.6 381.2l-408 427.6c-15.2 15.2-35.2 23-55 23.2h-223c-35.2 0-63.6-28.4-63.6-63.6v-216.2c0-21.6 8.6-41 22.6-55.4l428-414.4c12.2-12.2 28.6-18.4 45-18.4 16.2 0 32.6 6 45 18.4l209 208.8c12.4 12.4 18.4 28.6 18.4 45s-6.2 32.8-18.4 45zM320 544c-53 0-96 43-96 96s43 96 96 96 96-43 96-96-43-96-96-96z" />
<glyph unicode="&#xe61b;" glyph-name="pricetags" d="M928 832v-274.754l-473.694-532.206 25.694-25.040 480 544v288zM576 896l-512-576 320-320 46.942 47.808 22.696 22.75 442.362 505.442v320h-320zM704 640c-35.29 0-64 28.71-64 64s28.71 64 64 64 64-28.71 64-64-28.71-64-64-64zM736 704c0-17.673-14.327-32-32-32s-32 14.327-32 32c0 17.673 14.327 32 32 32s32-14.327 32-32z" />
<glyph unicode="&#xe61c;" glyph-name="bell" d="M963.318 194.875c0 253.125-225 196.875-225 393.75 0 16.313-1.571 30.252-4.437 42.125-14.792 99.332-80.996 179.051-166.792 203.344 0.761 3.47 1.161 7.059 1.161 10.732 0 29.248-25.313 53.176-56.25 53.176s-56.25-23.927-56.25-53.174c0-3.674 0.401-7.264 1.16-10.732-96.214-27.245-167.796-124.188-169.852-240.33-0.036-1.688-0.058-3.397-0.058-5.138 0-196.877-225-140.627-225-393.752 0-66.996 149.933-123.043 350.657-137.18 18.918-35.512 56.3-59.695 99.343-59.695s80.427 24.184 99.343 59.695c200.724 14.137 350.657 70.184 350.657 137.18 0 0.201-0.023 0.401-0.024 0.599l1.343-0.599zM788.193 147.33c-47.663-12.718-103.85-21.863-164.152-26.936-5.013 57.496-53.246 102.607-112.042 102.607s-107.028-45.111-112.042-102.607c-60.3 5.073-116.488 14.219-164.152 26.936-65.593 17.502-96.952 37.081-108.428 47.545 11.477 10.464 42.836 30.043 108.428 47.545 76.265 20.348 174.351 31.556 276.193 31.556s199.928-11.208 276.193-31.556c65.593-17.502 96.952-37.081 108.428-47.545-11.477-10.464-42.836-30.043-108.428-47.545z" />
<glyph unicode="&#xe61d;" glyph-name="wrench" d="M916.517 195.965l-379.483 325.272c17.672 33.204 27.7 71.093 27.7 111.332 0 131.060-106.245 237.305-237.305 237.305-23.973 0-47.108-3.569-68.922-10.179l137.102-137.102c20.509-20.509 20.509-54.069 0-74.578l-83.625-83.625c-20.509-20.509-54.069-20.509-74.578 0l-137.102 137.102c-6.61-21.814-10.179-44.95-10.179-68.922 0-131.060 106.245-237.305 237.305-237.305 40.238 0 78.127 10.028 111.332 27.702l325.272-379.483c18.876-22.020 51.099-23.258 71.607-2.75l83.627 83.627c20.507 20.508 19.269 52.729-2.75 71.605z" />
<glyph unicode="&#xe61e;" glyph-name="download" d="M849.5 448h-140.625l-196.875-196.875-196.875 196.875h-140.625l-112.5-225v-56.25h900v56.25l-112.5 225zM62 110.5h900v-56.25h-900v56.25zM568.25 616.75v225h-112.5v-225h-196.875l253.125-253.125 253.125 253.125h-196.875z" />
<glyph unicode="&#xe61f;" glyph-name="upload" d="M62 110.5h900v-56.25h-900zM962 223v-56.25h-900v56.25l112.5 225h225v-112.5h225v112.5h225zM258.875 616.75l253.125 253.125 253.125-253.125h-196.875v-225h-112.5v225z" />
<glyph unicode="&#xe620;" glyph-name="power" d="M905.75 448c0-217.463-176.287-393.75-393.75-393.75s-393.75 176.287-393.75 393.75c0 95.85 34.481 183.459 91.406 251.719 4.331 7.987 10.35 14.934 17.859 19.969 1.266 1.322 2.391 2.813 3.684 4.106 0.028-0.647 0.309-1.266 0.366-1.913 8.128 4.556 17.353 7.369 27.309 7.369 31.050 0 56.25-25.2 56.25-56.25 0-19.575-9.984-36.788-25.172-46.856 0.984-0.731 1.688-1.631 2.7-2.362-38.672-48.15-61.903-109.209-61.903-175.781 0-155.334 125.916-281.25 281.25-281.25s281.25 125.916 281.25 281.25c0 66.572-23.231 127.631-61.903 175.781 1.013 0.731 1.744 1.631 2.7 2.362-15.188 10.069-25.172 27.281-25.172 46.856 0 31.050 25.2 56.25 56.25 56.25 9.956 0 19.181-2.813 27.309-7.369 0.056 0.647 0.337 1.266 0.394 1.912 1.266-1.294 2.391-2.784 3.684-4.106 7.509-5.034 13.5-11.981 17.859-19.969 56.869-68.259 91.378-155.869 91.378-251.719zM540.125 391.75h-56.25c-15.553 0-28.125 12.572-28.125 28.125v393.75c0 15.525 12.572 28.125 28.125 28.125h56.25c15.553 0 28.125-12.6 28.125-28.125v-393.75c0-15.553-12.572-28.125-28.125-28.125z" />
<glyph unicode="&#xe621;" glyph-name="reference" horiz-adv-x="842" d="M732.507 772.487h-622.859c-43.309 0-78.415-24.928-78.415-55.681v-538.232c0-30.751 35.107-55.682 78.415-55.682h622.859c43.307 0 78.416 24.931 78.416 55.682v538.232c0 30.753-35.108 55.681-78.416 55.681v0zM204.714 370.927h296.789v-41.417h-296.789v41.417zM204.714 465.646h454.657v-41.417h-454.657v41.417zM204.714 560.367h454.657v-41.417h-454.657v41.417z" />
<glyph unicode="&#xe622;" glyph-name="wallet2" horiz-adv-x="1218" d="M974.43 671.263h-17.742v104.383c0 24.103-19.539 43.643-43.645 43.643h-701.727c-24.104 0-43.645-19.539-43.645-43.643v-558.921c0-0.852 0.079-1.68 0.129-2.52-0.065-0.804-0.129-1.606-0.129-2.427v-100.461c0-19.666 15.941-35.608 35.608-35.608h669.771c19.665 0 35.606 15.941 35.606 35.608v31.445h-656.747c-8.273 0-14.977 6.705-14.977 14.977s6.705 14.977 14.977 14.977l661.131 0.363c24.104 0 43.645 19.537 43.645 43.644v68.961h6.393c49.225 0 89.271 40.047 89.271 89.271v218.382c0 42.965-34.955 77.92-77.923 77.92v0zM302.319 268.944c0-5.916-4.796-10.711-10.711-10.711s-10.711 4.793-10.711 10.711v482.019c0 5.913 4.796 10.711 10.711 10.711s10.711-4.796 10.711-10.711v-482.019zM1011.653 374.959c0-26.781-21.789-48.572-48.572-48.572h-6.393v51.273c0 23.366-18.943 42.309-42.309 42.309h-149.381c-46.556 0-84.299 37.743-84.299 84.299v42.042c0 46.556 37.743 84.299 84.299 84.299l209.432-0.046c20.525 0 37.223-16.697 37.223-37.221v-218.382z" />
<glyph unicode="&#xe623;" glyph-name="history" horiz-adv-x="934" d="M825.441 494.573l-32.207 121.065c-0.048 1.094-0.157 2.169-0.288 3.236v43.967c0 14.829-7.431 27.95-18.754 35.865v35.201c0 14.79-7.673 27.809-19.23 35.333v30.457c0 23.248-18.914 42.164-42.161 42.164h-489.073c-23.248 0-42.164-18.914-42.164-42.164v-30.253c-11.738-7.495-19.557-20.604-19.557-35.534v-33.671c-12.626-7.676-21.076-21.562-21.076-37.389v-34.732l-34.334-133.535c-0.205-1.21-0.336-2.446-0.336-3.713v-414.179c0-12.258 10.031-22.285 22.285-22.285h674.942c12.257 0 22.285 10.029 22.285 22.285v414.179c0 1.267-0.133 2.505-0.336 3.713v0zM221.319 799.687c0 1.282 1.127 2.414 2.411 2.414h489.073c1.282 0 2.411-1.127 2.411-2.414v-23.625h-493.893v23.625zM201.757 733.899c0 1.287 1.127 2.414 2.414 2.414h527.858c1.286 0 2.411-1.127 2.411-2.414v-27.339h-532.685v27.339zM690.197 391.773c0-17.721-14.497-32.221-32.221-32.221h-383.914c-17.721 0-32.221 14.501-32.221 32.221s14.501 32.218 32.221 32.218h383.914c17.723 0 32.221-14.497 32.221-32.218v0zM179.745 667.202h573.732v-159.040h-573.732v159.040z" />
<glyph unicode="&#xe624;" glyph-name="forward" d="M449.248 577.472v318.528l-449.248-448 449.248-448v321.344c228.32 0 453.664-39.744 574.752-228.352-12.608 343.712-269.76 425.536-574.752 484.48z" />
<glyph unicode="&#xe626;" glyph-name="trash" horiz-adv-x="933" d="M362.451 188.385v380.769q0 7.572-4.868 12.44t-12.44 4.868h-34.614q-7.572 0-12.44-4.868t-4.868-12.44v-380.769q0-7.572 4.868-12.44t12.44-4.868h34.614q7.572 0 12.44 4.868t4.868 12.44zM500.913 188.385v380.769q0 7.572-4.868 12.44t-12.44 4.868h-34.615q-7.572 0-12.44-4.868t-4.868-12.44v-380.769q0-7.572 4.868-12.44t12.44-4.868h34.615q7.572 0 12.44 4.868t4.868 12.44zM639.374 188.385v380.769q0 7.572-4.868 12.44t-12.44 4.868h-34.615q-7.572 0-12.44-4.868t-4.868-12.44v-380.769q0-7.572 4.868-12.44t12.44-4.868h34.615q7.572 0 12.44 4.868t4.868 12.44zM345.143 724.923h242.307l-25.962 63.281q-3.787 4.868-9.194 5.95h-171.455q-5.408-1.082-9.194-5.95zM847.067 707.615v-34.615q0-7.572-4.868-12.44t-12.44-4.868h-51.923v-512.739q0-44.892-25.42-77.615t-61.117-32.722h-450q-35.697 0-61.117 31.641t-25.42 76.533v514.904h-51.923q-7.572 0-12.44 4.868t-4.868 12.44v34.615q0 7.572 4.868 12.44t12.44 4.868h167.126l37.861 90.325q8.112 20.012 29.207 34.074t42.728 14.063h173.077q21.635 0 42.728-14.063t29.207-34.074l37.861-90.325h167.126q7.572 0 12.44-4.868t4.868-12.44z" />
<glyph unicode="&#xe627;" glyph-name="circle-active" d="M1024 448c0-282.77-229.23-512-512-512s-512 229.23-512 512c0 282.77 229.23 512 512 512s512-229.23 512-512z" />
<glyph unicode="&#xe628;" glyph-name="erase" d="M921.6 819.2h-489.165c-22.528 0-54.835-12.134-71.782-26.982l-347.955-304.435c-16.947-14.848-16.947-39.117 0-53.965l347.955-304.486c16.947-14.797 49.254-26.931 71.782-26.931h489.165c56.371 0 102.4 46.080 102.4 102.4v512c0 56.32-46.029 102.4-102.4 102.4zM777.779 256l-130.918 130.918-130.816-130.918-73.933 73.882 130.867 130.918-130.867 130.867 73.933 73.933 130.867-130.867 130.867 130.867 73.882-73.933-130.816-130.867 130.867-130.867-73.933-73.933z" />
<glyph unicode="&#xe629;" glyph-name="circle" horiz-adv-x="1073" d="M536.381-88.381c-297.448 0-536.381 238.933-536.381 536.381s238.933 536.381 536.381 536.381 536.381-238.933 536.381-536.381c0-297.448-238.933-536.381-536.381-536.381zM536.381 935.619c-268.19 0-487.619-219.429-487.619-487.619s219.429-487.619 487.619-487.619c268.19 0 487.619 219.429 487.619 487.619s-219.429 487.619-487.619 487.619z" />
<glyph unicode="&#xe62a;" glyph-name="scan" horiz-adv-x="1013" d="M102.030 745.532v-182.209h91.103v182.209h182.209v91.103h-182.209c-50.108 0-91.103-40.997-91.103-91.103v0zM193.135 290.010h-91.103v-182.209c0-50.108 40.997-91.104 91.103-91.104h182.209v91.104h-182.209v182.209zM830.865 107.802h-182.209v-91.103h182.209c50.108 0 91.103 40.997 91.103 91.103v182.209h-91.103v-182.209zM830.865 836.637h-182.209v-91.103h182.209v-182.209h91.103v182.209c0 50.108-40.997 91.103-91.103 91.103v0zM607.66 413.002h-81.995v-81.995h-27.331v81.995h-81.995v27.331h81.995v81.995h27.331v-81.995h81.995v-27.331z" />
<glyph unicode="&#xe62b;" glyph-name="checkmark-circle" d="M512 896c-247.4 0-448-200.6-448-448s200.6-448 448-448c247.4 0 448 200.6 448 448s-200.6 448-448 448zM741.8 597.8l-278.2-357c-2.2-2.2-5.8-7-10.2-7-4.6 0-7.6 3.2-10.2 5.8s-157.8 151.8-157.8 151.8l-3 3c-1.2 1.8-2.2 4-2.2 6.4s1 4.6 2.2 6.4c0.8 0.8 1.4 1.4 2.2 2.4 15.4 16.2 46.6 49 48.6 51 2.6 2.6 4.8 6 9.6 6 5 0 8.2-4.2 10.6-6.6s90-86.6 90-86.6l222.6 286c2 1.6 4.4 2.8 7 2.8s5-1 7-2.6l61.2-48.2c1.6-2 2.6-4.4 2.6-7 0.2-2.6-0.8-4.8-2-6.6z" />
<glyph unicode="&#xe62c;" glyph-name="minus-circle" d="M512 896c-247.4 0-448-200.6-448-448s200.6-448 448-448 448 200.6 448 448-200.6 448-448 448zM768 416h-512v64h512v-64z" />
<glyph unicode="&#xe62d;" glyph-name="plus-circle" d="M512 896c-247.4 0-448-200.6-448-448s200.6-448 448-448 448 200.6 448 448-200.6 448-448 448zM768 416h-224v-224h-64v224h-224v64h224v224h64v-224h224v-64z" />
<glyph unicode="&#xe62e;" glyph-name="close-circle" d="M512 894c-247.4 0-448-200.6-448-448s200.6-448 448-448c247.4 0 448 200.6 448 448s-200.6 448-448 448zM728.6 295c3-3 4.6-7 4.6-11.2s-1.6-8.4-4.6-11.2l-43.2-43.4c-3.2-3.2-7.2-4.6-11.2-4.6s-8.2 1.6-11.2 4.6l-151 151.2-150.8-151.4c-3-3.2-7.2-4.6-11.2-4.6s-8.2 1.6-11.2 4.6l-43.2 43.4c-3 3-4.6 7-4.6 11.2s1.6 8.4 4.6 11.2l151.4 152-151.8 150c-6.2 6.2-6.2 16.4 0 22.6l43.2 43.4c3 3 7 4.6 11.2 4.6s8.2-1.6 11.2-4.6l151.4-149.4 151.4 149.4c3 3 7 4.6 11.2 4.6s8.2-1.6 11.2-4.6l43.2-43.4c6.2-6.2 6.2-16.4 0-22.6l-151.8-150 151.2-151.8z" />
<glyph unicode="&#xe62f;" glyph-name="receive2" d="M990.208 279.347l-163.021 109.67h-100.506l174.080-133.53h-181.504c-5.222 0-9.882-2.662-12.288-6.81l-41.779-114.432h-306.381l-41.83 114.432c-2.304 4.147-7.066 6.81-12.288 6.81h-181.453l174.131 133.53h-100.557l-162.97-109.67c-24.269-14.49-38.758-47.923-32.256-74.189l28.723-157.389c6.502-26.317 35.379-47.872 64.051-47.872h835.226c28.774 0 57.6 21.555 64.102 47.872l28.723 157.389c6.605 26.317-7.936 59.699-32.205 74.189zM778.291 608.154h-169.011v262.144h-194.56v-262.144h-168.96l266.24-249.856 266.291 249.856z" />
<glyph unicode="&#xe630;" glyph-name="bank" horiz-adv-x="1077" d="M956.82 724.392h-0.037l-424.442 186.726-424.479-186.726v-108.561h848.959v108.561zM191.457 218.489c-12.592 0-22.798-10.203-22.798-22.798s10.203-22.798 22.798-22.798h134.618c12.592 0 22.798 10.203 22.798 22.798s-10.203 22.798-22.798 22.798h-7.597v325.689h7.597c12.592 0 22.798 10.203 22.798 22.798s-10.203 22.798-22.798 22.798h-134.618c-12.592 0-22.798-10.203-22.798-22.798s10.203-22.798 22.798-22.798h7.597v-325.689h-7.597zM465.031 218.489c-12.592 0-22.798-10.203-22.798-22.798s10.203-22.798 22.798-22.798h134.618c12.592 0 22.798 10.203 22.798 22.798s-10.203 22.798-22.798 22.798h-7.597v325.689h7.597c12.592 0 22.798 10.203 22.798 22.798s-10.203 22.798-22.798 22.798h-134.618c-12.592 0-22.798-10.203-22.798-22.798s10.203-22.798 22.798-22.798h7.597v-325.689h-7.597zM742.951 218.489c-12.592 0-22.798-10.203-22.798-22.798s10.203-22.798 22.798-22.798h134.618c12.592 0 22.798 10.203 22.798 22.798s-10.203 22.798-22.798 22.798h-7.597v325.689h7.597c12.592 0 22.798 10.203 22.798 22.798s-10.203 22.798-22.798 22.798h-134.618c-12.592 0-22.798-10.203-22.798-22.798s10.203-22.798 22.798-22.798h7.597v-325.689h-7.597zM107.885 125.129v-13.029c0-11.989 9.721-21.712 21.712-21.712h805.487c11.989 0 21.712 9.723 21.712 21.712v13.029c0 11.989-9.723 21.712-21.712 21.712h-805.487c-11.992 0-21.712-9.721-21.712-21.712zM991.56 64.331h-918.439c-11.992 0-21.712-9.723-21.712-21.712v-19.54c0-11.989 9.721-21.712 21.712-21.712h918.439c11.989 0 21.712 9.723 21.712 21.712v19.54c0 11.992-9.721 21.712-21.712 21.712z" />
<glyph unicode="&#xe631;" horiz-adv-x="1079" d="M887.467 509.44c0-241.297-195.61-436.907-436.907-436.907s-436.907 195.61-436.907 436.907c0 241.297 195.61 436.907 436.907 436.907s436.907-195.61 436.907-436.907z" />
<glyph unicode="&#xe632;" horiz-adv-x="1079" d="M450.56 58.88c-248.491 0-450.56 202.069-450.56 450.56s202.069 450.56 450.56 450.56 450.56-202.069 450.56-450.56c0-248.491-202.069-450.56-450.56-450.56zM450.56 932.693c-233.472 0-423.253-189.781-423.253-423.253s189.781-423.253 423.253-423.253c233.472 0 423.253 189.781 423.253 423.253s-189.781 423.253-423.253 423.253z" />
<glyph unicode="&#xe633;" horiz-adv-x="1079" d="M645.803 523.093h-390.485c-20.48 0-36.864-15.019-36.864-32.768s16.384-32.768 36.864-32.768h390.485c20.48 0 36.864 15.019 36.864 32.768s-16.384 32.768-36.864 32.768v0z" />
<glyph unicode="&#xe634;" horiz-adv-x="1079" d="M641.707 168.107c0-113.323 91.477-204.8 204.8-204.8s204.8 91.477 204.8 204.8c0 113.323-91.477 204.8-204.8 204.8s-204.8-91.477-204.8-204.8z" />
<glyph unicode="&#xe635;" horiz-adv-x="1079" d="M846.507-50.347c-120.149 0-218.453 98.304-218.453 218.453s98.304 218.453 218.453 218.453 218.453-98.304 218.453-218.453-98.304-218.453-218.453-218.453zM846.507 359.253c-105.131 0-191.147-86.016-191.147-191.147s86.016-191.147 191.147-191.147 191.147 86.016 191.147 191.147-86.016 191.147-191.147 191.147z" />
<glyph unicode="&#xe636;" horiz-adv-x="1079" d="M965.291 235.008l-129.707-162.475c-1.365-1.365-2.731-2.731-4.096-2.731-2.731 0-4.096 1.365-4.096 2.731-1.365 1.365-73.728 68.267-73.728 68.267l-1.365 1.365c0 1.365-1.365 1.365-1.365 2.731s0 2.731 1.365 2.731c0 0 0 0 1.365 1.365 6.827 6.827 21.845 21.845 23.211 23.211s2.731 2.731 4.096 2.731c2.731 0 4.096-1.365 5.461-2.731s42.325-39.595 42.325-39.595l103.765 129.707c1.365 1.365 1.365 1.365 2.731 1.365s2.731 0 2.731-1.365l28.672-21.845c1.365-1.365 1.365-1.365 1.365-2.731-1.365-1.365-2.731-2.731-2.731-2.731v0z" />
<glyph unicode="&#xe637;" horiz-adv-x="1079" d="M887.467 509.44c0-241.297-195.61-436.907-436.907-436.907s-436.907 195.61-436.907 436.907c0 241.297 195.61 436.907 436.907 436.907s436.907-195.61 436.907-436.907z" />
<glyph unicode="&#xe638;" horiz-adv-x="1079" d="M450.56 58.88c-248.491 0-450.56 202.069-450.56 450.56s202.069 450.56 450.56 450.56 450.56-202.069 450.56-450.56c0-248.491-202.069-450.56-450.56-450.56zM450.56 932.693c-233.472 0-423.253-189.781-423.253-423.253s189.781-423.253 423.253-423.253c233.472 0 423.253 189.781 423.253 423.253s-189.781 423.253-423.253 423.253z" />
<glyph unicode="&#xe639;" horiz-adv-x="1079" d="M489.244 547.214v157.013c0 20.48-17.749 36.864-38.229 36.864s-38.229-16.384-38.229-36.864v-157.013h-157.013c-20.48 0-36.864-17.749-36.864-38.229s16.384-38.229 36.864-38.229h157.013v-157.013c0-20.48 17.749-36.864 38.229-36.864s38.229 16.384 38.229 36.864v157.013h157.013c20.48 0 36.864 17.749 36.864 38.229s-16.384 38.229-36.864 38.229h-157.013z" />
<glyph unicode="&#xe63a;" horiz-adv-x="1079" d="M641.707 168.107c0-113.323 91.477-204.8 204.8-204.8s204.8 91.477 204.8 204.8c0 113.323-91.477 204.8-204.8 204.8s-204.8-91.477-204.8-204.8z" />
<glyph unicode="&#xe63b;" horiz-adv-x="1079" d="M846.507-50.347c-120.149 0-218.453 98.304-218.453 218.453s98.304 218.453 218.453 218.453 218.453-98.304 218.453-218.453-98.304-218.453-218.453-218.453zM846.507 359.253c-105.131 0-191.147-86.016-191.147-191.147s86.016-191.147 191.147-191.147 191.147 86.016 191.147 191.147-86.016 191.147-191.147 191.147z" />
<glyph unicode="&#xe63c;" horiz-adv-x="1079" d="M965.291 235.008l-129.707-162.475c-1.365-1.365-2.731-2.731-4.096-2.731-2.731 0-4.096 1.365-4.096 2.731-1.365 1.365-73.728 68.267-73.728 68.267l-1.365 1.365c0 1.365-1.365 1.365-1.365 2.731s0 2.731 1.365 2.731c0 0 0 0 1.365 1.365 6.827 6.827 21.845 21.845 23.211 23.211s2.731 2.731 4.096 2.731c2.731 0 4.096-1.365 5.461-2.731s42.325-39.595 42.325-39.595l103.765 129.707c1.365 1.365 1.365 1.365 2.731 1.365s2.731 0 2.731-1.365l28.672-21.845c1.365-1.365 1.365-1.365 1.365-2.731-1.365-1.365-2.731-2.731-2.731-2.731v0z" />
<glyph unicode="&#xe63d;" glyph-name="sold-pending" d="M512-64c-282.376 0-512 229.624-512 512s229.624 512 512 512 512-229.624 512-512c0-282.376-229.624-512-512-512zM512 928.97c-265.309 0-480.97-215.661-480.97-480.97s215.661-480.97 480.97-480.97c265.309 0 480.97 215.661 480.97 480.97s-215.661 480.97-480.97 480.97zM733.867 463.515h-443.733c-23.273 0-41.891-17.067-41.891-37.236s18.618-37.236 41.891-37.236h443.733c23.273 0 41.891 17.067 41.891 37.236s-18.618 37.236-41.891 37.236v0z" />
<glyph unicode="&#xe63e;" glyph-name="bought-pending" d="M512-64c-282.376 0-512 229.624-512 512s229.624 512 512 512 512-229.624 512-512c0-282.376-229.624-512-512-512zM512 928.97c-265.309 0-480.97-215.661-480.97-480.97s215.661-480.97 480.97-480.97c265.309 0 480.97 215.661 480.97 480.97s-215.661 480.97-480.97 480.97zM555.96 490.925v178.424c0 23.273-20.17 41.891-43.442 41.891s-43.442-18.618-43.442-41.891v-178.424h-178.424c-23.273 0-41.891-20.17-41.891-43.442s18.618-43.442 41.891-43.442h178.424v-178.424c0-23.273 20.17-41.891 43.442-41.891s43.442 18.618 43.442 41.891v178.424h178.424c23.273 0 41.891 20.17 41.891 43.442s-18.618 43.442-41.891 43.442h-178.424z" />
<glyph unicode="&#xe63f;" horiz-adv-x="1241" d="M493.382 620.218l-26.376-107.055c31.030-7.758 124.121-38.788 139.636 21.721 15.515 63.612-82.23 77.576-113.261 85.333v0z" />
<glyph unicode="&#xe640;" horiz-adv-x="1241" d="M453.042 457.309l-29.479-117.915c35.685-9.309 148.945-44.994 166.012 21.721 17.067 69.818-99.297 88.436-136.533 96.194v0z" />
<glyph unicode="&#xe641;" horiz-adv-x="1241" d="M614.4 938.279c-262.206 65.164-527.515-94.642-594.23-356.848-65.164-262.206 94.642-529.067 356.848-594.23s529.067 94.642 594.23 356.848c65.164 263.758-93.091 529.067-356.848 594.23v0zM712.145 533.333c-7.758-48.097-34.133-71.37-68.267-79.127 48.097-24.824 72.921-63.612 49.648-130.327-29.479-82.23-97.745-89.988-189.285-72.921l-21.721-88.436-54.303 13.964 21.721 88.436c-13.964 3.103-27.927 7.758-43.442 10.861l-21.721-88.436-54.303 13.964 21.721 89.988c-12.412 3.103-24.824 6.206-38.788 9.309l-69.818 17.067 26.376 62.061c0 0 40.339-10.861 38.788-9.309 15.515-3.103 21.721 6.206 24.824 12.412l35.685 141.188c1.552 0 4.655-1.552 6.206-1.552-1.552 1.552-4.655 1.552-6.206 1.552l24.824 100.848c0 10.861-3.103 26.376-24.824 31.030 1.552 0-38.788 9.309-38.788 9.309l13.964 57.406 74.473-18.618c10.861-3.103 23.273-4.655 34.133-7.758l21.721 88.436 54.303-13.964-21.721-86.885c13.964-3.103 29.479-6.206 43.442-10.861l21.721 85.333 54.303-13.964-21.721-88.436c66.715-21.721 116.364-57.406 107.055-122.57v0z" />
<glyph unicode="&#xe642;" horiz-adv-x="1241" d="M1210.182 199.758c0-128.532-104.196-232.727-232.727-232.727s-232.727 104.196-232.727 232.727c0 128.532 104.196 232.727 232.727 232.727s232.727-104.196 232.727-232.727z" />
<glyph unicode="&#xe643;" horiz-adv-x="1241" d="M977.455-48.485c-136.533 0-248.242 111.709-248.242 248.242s111.709 248.242 248.242 248.242 248.242-111.709 248.242-248.242-111.709-248.242-248.242-248.242zM977.455 416.97c-119.467 0-217.212-97.745-217.212-217.212s97.745-217.212 217.212-217.212 217.212 97.745 217.212 217.212-97.745 217.212-217.212 217.212z" />
<glyph unicode="&#xe644;" horiz-adv-x="1241" d="M1081.406 218.376h-209.455c-10.861 0-20.17-7.758-20.17-18.618s9.309-18.618 20.17-18.618h209.455c10.861 0 20.17 7.758 20.17 18.618s-9.309 18.618-20.17 18.618v0z" />
<glyph unicode="&#xe645;" horiz-adv-x="1241" d="M493.382 620.218l-26.376-107.055c31.030-7.758 124.121-38.788 139.636 21.721 15.515 63.612-82.23 77.576-113.261 85.333v0z" />
<glyph unicode="&#xe646;" horiz-adv-x="1241" d="M453.042 457.309l-29.479-117.915c35.685-9.309 148.945-44.994 166.012 21.721 17.067 69.818-99.297 88.436-136.533 96.194v0z" />
<glyph unicode="&#xe647;" horiz-adv-x="1241" d="M614.4 938.279c-262.206 65.164-527.515-94.642-594.23-356.848-65.164-262.206 94.642-529.067 356.848-594.23s529.067 94.642 594.23 356.848c65.164 263.758-93.091 529.067-356.848 594.23v0zM712.145 533.333c-7.758-48.097-34.133-71.37-68.267-79.127 48.097-24.824 72.921-63.612 49.648-130.327-29.479-82.23-97.745-89.988-189.285-72.921l-21.721-88.436-54.303 13.964 21.721 88.436c-13.964 3.103-27.927 7.758-43.442 10.861l-21.721-88.436-54.303 13.964 21.721 89.988c-12.412 3.103-24.824 6.206-38.788 9.309l-69.818 17.067 26.376 62.061c0 0 40.339-10.861 38.788-9.309 15.515-3.103 21.721 6.206 24.824 12.412l35.685 141.188c1.552 0 4.655-1.552 6.206-1.552-1.552 1.552-4.655 1.552-6.206 1.552l24.824 100.848c0 10.861-3.103 26.376-24.824 31.030 1.552 0-38.788 9.309-38.788 9.309l13.964 57.406 74.473-18.618c10.861-3.103 23.273-4.655 34.133-7.758l21.721 88.436 54.303-13.964-21.721-86.885c13.964-3.103 29.479-6.206 43.442-10.861l21.721 85.333 54.303-13.964-21.721-88.436c66.715-21.721 116.364-57.406 107.055-122.57v0z" />
<glyph unicode="&#xe648;" horiz-adv-x="1241" d="M1210.182 199.758c0-128.532-104.196-232.727-232.727-232.727s-232.727 104.196-232.727 232.727c0 128.532 104.196 232.727 232.727 232.727s232.727-104.196 232.727-232.727z" />
<glyph unicode="&#xe649;" horiz-adv-x="1241" d="M977.455-48.485c-136.533 0-248.242 111.709-248.242 248.242s111.709 248.242 248.242 248.242 248.242-111.709 248.242-248.242-111.709-248.242-248.242-248.242zM977.455 416.97c-119.467 0-217.212-97.745-217.212-217.212s97.745-217.212 217.212-217.212 217.212 97.745 217.212 217.212-97.745 217.212-217.212 217.212z" />
<glyph unicode="&#xe64a;" horiz-adv-x="1241" d="M1081.406 219.927h-83.782v83.782c0 10.861-9.309 20.17-20.17 20.17s-20.17-9.309-20.17-20.17v-83.782h-83.782c-10.861 0-20.17-9.309-20.17-20.17s9.309-20.17 20.17-20.17h83.782v-83.782c0-10.861 9.309-20.17 20.17-20.17s20.17 9.309 20.17 20.17v83.782h83.782c10.861 0 20.17 9.309 20.17 20.17s-9.309 20.17-20.17 20.17v0z" />
<glyph unicode="&#xe900;" glyph-name="activity" d="M938.285 594.117c9.841 0 18.301 3.449 25.361 10.345s10.59 15.423 10.59 25.602c0 9.841-3.53 18.301-10.59 25.361s-15.509 10.59-25.361 10.59c-10.179 0-18.712-3.53-25.602-10.59s-10.345-15.509-10.345-25.361c0-10.179 3.449-18.712 10.345-25.602s15.423-10.345 25.602-10.345v0zM289.914 539.962c10.179 0 18.712 3.53 25.602 10.59s10.345 15.509 10.345 25.361c0 9.841-3.449 18.301-10.345 25.361s-15.423 10.59-25.602 10.59c-9.841 0-18.301-3.53-25.361-10.59s-10.59-15.509-10.59-25.361c0-9.841 3.53-18.301 10.59-25.361s15.509-10.59 25.361-10.59v0zM722.166 468.077c9.841 0 18.301 3.449 25.361 10.345s10.59 15.423 10.59 25.602c0 9.841-3.53 18.301-10.59 25.361s-15.509 10.59-25.361 10.59c-10.179 0-18.712-3.53-25.602-10.59s-10.345-15.509-10.345-25.361c0-10.179 3.449-18.712 10.345-25.602s15.423-10.345 25.602-10.345v0zM938.285 701.93c20.016 0 37.014-6.974 50.963-20.925s20.925-30.937 20.925-50.963c0-20.016-6.974-37.014-20.925-50.963s-30.937-20.925-50.963-20.925c-20.673 0-37.74 7.060-51.203 21.177l-95.998-56.128c1.969-5.905 2.948-12.304 2.948-19.192 0-20.016-6.974-37.014-20.925-50.963s-30.937-20.925-50.963-20.925c-12.138 0-23.474 2.786-33.965 8.363l-121.6-131.947c7.541-11.162 11.321-24.128 11.321-38.899 0-19.697-6.974-36.603-20.925-50.712s-30.937-21.177-50.963-21.177c-20.016 0-37.014 7.060-50.963 21.177s-20.925 31.017-20.925 50.712c0 17.719 5.746 33.141 17.239 46.272l-135.883 192.99c-8.865-3.29-17.397-4.927-25.602-4.927-13.778 0-26.749 3.941-38.899 11.825l-113.72-104.368c5.905-10.83 8.865-21.994 8.865-33.484 0-20.016-7.060-37.014-21.177-50.963s-31.187-20.925-51.203-20.925c-20.016 0-37.014 6.974-50.963 20.925s-20.925 30.937-20.925 50.963c0 20.016 6.974 37.014 20.925 50.963s30.937 20.925 50.963 20.925c14.12 0 27.246-3.941 39.38-11.825l113.237 104.368c-5.586 11.162-8.363 22.312-8.363 33.484 0 20.016 6.974 37.014 20.925 50.963s30.937 20.925 50.963 20.925c20.016 0 37.014-6.974 50.963-20.925s20.925-30.937 20.925-50.963c0-17.397-5.746-32.828-17.239-46.272l135.883-192.495c9.186 3.29 17.719 4.927 25.602 4.927 11.482 0 22.813-2.948 33.965-8.865l122.094 131.447c-7.882 12.138-11.825 25.269-11.825 39.38 0 20.016 6.974 37.014 20.925 50.963s30.937 20.925 50.963 20.925c19.364 0 36.432-7.060 51.203-21.177l95.518 55.624c-1.969 8.534-2.948 15.098-2.948 19.697 0 20.016 7.060 37.014 21.177 50.963s31.187 20.925 51.203 20.925v0zM73.789 342.055c10.179 0 18.712 3.449 25.602 10.345s10.345 15.423 10.345 25.602c0 9.841-3.449 18.301-10.345 25.361s-15.423 10.59-25.602 10.59c-9.841 0-18.301-3.53-25.361-10.59s-10.59-15.509-10.59-25.361c0-10.179 3.53-18.712 10.59-25.602s15.509-10.345 25.361-10.345v0zM506.040 233.743c9.841 0 18.301 3.53 25.361 10.59s10.59 15.509 10.59 25.361c0 10.179-3.53 18.784-10.59 25.842s-15.509 10.59-25.361 10.59c-9.841 0-18.301-3.53-25.361-10.59s-10.59-15.665-10.59-25.842c0-9.841 3.53-18.301 10.59-25.361s15.509-10.59 25.361-10.59v0z" />
<glyph unicode="&#xe901;" glyph-name="receive" horiz-adv-x="1019" d="M1007.556 727.054c3.626-3.626 5.442-7.913 5.442-12.86v-669.227c0-10.225-3.547-18.878-10.634-25.965s-15.581-10.634-25.476-10.634h-940.778c-9.894 0-18.382 3.547-25.476 10.634s-10.634 15.747-10.634 25.965v669.227c0 4.947 1.816 9.234 5.442 12.86l144.428 144.428c3.626 3.626 7.913 5.442 12.86 5.442h687.53c4.947 0 9.234-1.816 12.86-5.442l144.428-144.428zM170.161 840.821l-108.324-108.82h889.337l-108.324 108.82h-672.688zM976.888 44.967v650.924h-940.778v-650.924h940.778zM493.642 158.734l-144.428 144.428c-3.626 3.626-5.442 7.913-5.442 12.86s1.731 9.234 5.192 12.86c3.461 3.626 7.668 5.442 12.616 5.442 5.608 0 9.894-1.816 12.86-5.442l113.762-113.762v354.149c0 4.947 1.816 9.234 5.442 12.86s7.913 5.442 12.86 5.442c4.947 0 9.234-1.816 12.86-5.442s5.442-7.913 5.442-12.86v-354.149l113.762 113.762c2.966 3.626 7.253 5.442 12.86 5.442 4.947 0 9.148-1.816 12.616-5.442s5.192-7.913 5.192-12.86c0-4.947-1.816-9.234-5.442-12.86l-144.428-144.428c-3.626-3.626-7.913-5.442-12.86-5.442s-9.234 1.816-12.86 5.442v0z" />
<glyph unicode="&#xe902;" glyph-name="send" horiz-adv-x="1011" d="M569.286-55.513c-7.785 0-13.137 3.73-16.057 11.191h-0.486l-157.162 384.39-384.39 157.649c-7.461 2.595-11.191 7.947-11.191 16.057 0 7.785 3.568 13.299 10.704 16.543l960.975 409.205c1.947 0.973 4.217 1.46 6.812 1.46 5.19 0 9.488-1.703 12.894-5.109s5.109-7.542 5.109-12.408c0-2.595-0.486-5.028-1.46-7.299l-409.205-960.975c-3.244-7.136-8.758-10.704-16.543-10.704v0zM63.74 514.261l341.572-139.645 495.814 496.298-837.386-356.655zM569.772 8.715l356.655 836.9-496.298-495.814 139.645-341.089z" />
<glyph unicode="&#xe903;" glyph-name="wallet" horiz-adv-x="1195" d="M967.111-48.578h-745.244c-96.711 0-176.356 79.644-176.356 176.356v591.644l739.556 204.8c34.133 11.378 68.267 5.689 91.022-17.067 22.756-17.067 39.822-51.2 39.822-85.333v-96.711h108.089c68.267 0 125.156-56.889 125.156-130.844v-472.178c-5.689-91.022-85.333-170.667-182.044-170.667zM91.022 679.6v-546.133c0-68.267 56.889-125.156 125.156-125.156h745.244c68.267 0 125.156 56.889 125.156 125.156v472.178c0 39.822-34.133 79.644-73.956 79.644h-921.6zM256 730.8h603.022v96.711c0 17.067-5.689 34.133-17.067 45.511s-28.444 11.378-45.511 5.689l-540.444-147.911zM1103.644 213.111h-210.489c-11.378 0-28.444 11.378-28.444 28.444s11.378 28.444 28.444 28.444h210.489c11.378 0 28.444-11.378 28.444-28.444s-17.067-28.444-28.444-28.444zM790.756 144.844c-51.2 0-91.022 45.511-91.022 96.711s39.822 96.711 91.022 96.711c51.2 0 91.022-45.511 91.022-96.711s-39.822-96.711-91.022-96.711zM790.756 287.067c-22.756 0-39.822-17.067-39.822-45.511s17.067-45.511 39.822-45.511c22.756 0 39.822 17.067 39.822 45.511s-17.067 45.511-39.822 45.511z" />
<glyph unicode="&#xe904;" glyph-name="activity-active" horiz-adv-x="1969" d="M1744.311 827.263c21.931-21.931 32.897-48.635 32.897-80.112s-10.968-58.182-32.897-80.112c-21.931-21.931-48.635-32.897-80.112-32.897-32.51 0-59.342 11.094-80.5 33.285l-150.936-88.24c3.096-9.289 4.644-19.352 4.644-30.186 0-31.477-10.968-58.182-32.897-80.112s-48.635-32.897-80.112-32.897c-19.092 0-36.896 4.387-53.407 13.16l-191.186-207.442c11.872-17.544 17.804-37.929 17.804-61.15 0-30.962-10.968-57.536-32.897-79.727s-48.635-33.285-80.112-33.285c-31.477 0-58.182 11.094-80.112 33.285s-32.897 48.763-32.897 79.727c0 27.866 9.031 52.119 27.090 72.76l-213.635 303.423c-13.933-5.157-27.35-7.74-40.25-7.74-21.673 0-42.055 6.192-61.15 18.577l-178.801-164.096c9.289-17.029 13.933-34.573 13.933-52.635 0-31.477-11.094-58.182-33.285-80.112s-49.023-32.897-80.5-32.897c-31.477 0-58.182 10.968-80.112 32.897s-32.897 48.635-32.897 80.112c0 31.477 10.968 58.182 32.897 80.112s48.635 32.897 80.112 32.897c22.186 0 42.831-6.192 61.923-18.577l178.029 164.096c-8.773 17.544-13.16 35.093-13.16 52.635 0 31.477 10.968 58.182 32.897 80.112s48.635 32.897 80.112 32.897c31.477 0 58.182-10.968 80.112-32.897s32.897-48.635 32.897-80.112c0-27.35-9.031-51.599-27.090-72.76l213.635-302.647c14.448 5.157 27.865 7.74 40.25 7.74 18.064 0 35.863-4.644 53.407-13.933l191.962 206.669c-12.385 19.092-18.577 39.737-18.577 61.923 0 31.477 10.968 58.182 32.897 80.112s48.635 32.897 80.112 32.897c30.446 0 57.279-11.094 80.5-33.285l150.163 87.465c-3.096 13.42-4.644 23.734-4.644 30.962 0 31.477 11.094 58.182 33.285 80.112s49.023 32.897 80.5 32.897c31.477 0 58.182-10.968 80.112-32.897z" />
<glyph unicode="&#xe905;" glyph-name="receive-active" horiz-adv-x="1195" d="M1168.894 757.912c4.028-4.028 6.042-8.789 6.042-14.282v-743.225c0-11.353-3.937-20.966-11.81-28.839s-17.303-11.81-28.29-11.81h-1044.8c-10.986 0-20.416 3.937-28.29 11.81s-11.81 17.487-11.81 28.839v743.225c0 5.493 2.014 10.254 6.042 14.282l160.4 160.4c4.028 4.028 8.789 6.042 14.282 6.042h763.55c5.493 0 10.254-2.014 14.282-6.042l160.4-160.4zM238.901 884.255l-120.3-120.85h987.671l-120.3 120.85h-747.070zM598.154 126.748c4.028-4.028 8.789-6.042 14.282-6.042s10.254 2.014 14.282 6.042l160.4 160.4c4.028 4.028 6.042 8.789 6.042 14.282s-1.923 10.254-5.768 14.282c-3.845 4.028-8.514 6.042-14.008 6.042-6.226 0-10.986-2.014-14.282-6.042l-126.343-126.343v393.311c0 5.493-2.014 10.254-6.042 14.282s-8.789 6.042-14.282 6.042c-5.493 0-10.254-2.014-14.282-6.042s-6.042-8.789-6.042-14.282v-393.311l-126.343 126.343c-3.296 4.028-8.057 6.042-14.282 6.042-5.493 0-10.162-2.014-14.008-6.042s-5.768-8.789-5.768-14.282c0-5.493 2.014-10.254 6.042-14.282l160.4-160.4z" />
<glyph unicode="&#xe906;" glyph-name="send-active" horiz-adv-x="1088" d="M38.96 522.805l385.62-157.654 559.753 560.303-945.374-402.649zM610.25-47.935l402.649 944.824-560.303-559.753 157.654-385.071z" />
</font>
</defs>
</svg>
